Origin.Wars.2017.720p.WEB-DL.H264.AC3-EVO

  • Category Movies
  • Type HD
  • Language English
  • Total size 3.1 GB
  • Uploaded By showstopper
  • Downloads 61
  • Last checked 30 minutes ago
  • Date uploaded 4 days ago
  • Seeders 4
  • Leechers 6

Infohash : 8965A33837853C287A7154B65509CD497807C019

Origin.Wars.2017.720p.WEB-DL.H264.AC3-EVO

ImDb: http://www.imdb.com/title/tt4536768



Complete name                            : Origin.Wars.2017.720p.WEB-DL.H264.AC3-EVO.mkv
Format                                   : Matroska
Format version                           : Version 4 / Version 2
File size                                : 3.06 GiB
Duration                                 : 1 h 39 min
Overall bit rate                         : 4 417 kb/s
Movie name                               : EVO
Encoded date                             : UTC 2017-07-17 10:08:12
Writing application                      : mkvmerge v6.7.0 ('Back to the Ground') 64bit built on Jan  8 2014 15:10:52
Writing library                          : libebml v1.3.0 + libmatroska v1.4.1

Video
ID                                       : 2
Format                                   : AVC
Format/Info                              : Advanced Video Codec
Format profile                           : [email protected]
Format settings, CABAC                   : No
Format settings, ReFrames                : 2 frames
Codec ID                                 : V_MPEG4/ISO/AVC
Duration                                 : 1 h 39 min
Bit rate                                 : 3 945 kb/s
Width                                    : 1 280 pixels
Height                                   : 476 pixels
Display aspect ratio                     : 2.689
Frame rate mode                          : Constant
Frame rate                               : 23.976 FPS
Color space                              : YUV
Chroma subsampling                       : 4:2:0
Bit depth                                : 8 bits
Scan type                                : Progressive
Bits/(Pixel*Frame)                       : 0.270
Stream size                              : 2.73 GiB (89%)
Language                                 : English
Default                                  : Yes
Forced                                   : No
Color range                              : Limited
Color primaries                          : BT.709
Transfer characteristics                 : BT.709
Matrix coefficients                      : BT.709

Audio
ID                                       : 1
Format                                   : AC-3
Format/Info                              : Audio Coding 3
Format settings, Endianness              : Big
Codec ID                                 : A_AC3
Duration                                 : 1 h 39 min
Bit rate mode                            : Constant
Bit rate                                 : 384 kb/s
Channel(s)                               : 6 channels
Channel positions                        : Front: L C R, Side: L R, LFE
Sampling rate                            : 48.0 kHz
Frame rate                               : 31.250 FPS (1536 spf)
Bit depth                                : 16 bits
Compression mode                         : Lossy
Stream size                              : 272 MiB (9%)
Language                                 : English
Service kind                             : Complete Main
Default                                  : Yes
Forced                                   : No

Menu
00:00:00.000                             : en:1
00:08:10.990                             : en:2
00:18:10.880                             : en:3
00:26:00.599                             : en:4
00:37:08.307                             : en:5
00:48:43.292                             : en:6
00:54:55.706                             : en:7
01:02:26.823                             : en:8
01:12:52.280                             : en:9
01:24:48.704                             : en:10






Click To View Screenshot

Click To View Screenshot

Click To View Screenshot


Files:

Origin.Wars.2017.720p.WEB-DL.H264.AC3-EVO
  • Origin.Wars.2017.720p.WEB-DL.H264.AC3-EVO.mkv (3.1 GB)
  • Origin.Wars.2017.720p.WEB-DL.H264.AC3-EVO.nfo (0.7 KB)

There are currently no comments. Feel free to leave one :)

Code:

  • udp://tracker.coppersurfer.tk:6969/announce
  • udp://tracker.pirateparty.gr:6969/announce
  • udp://shadowshq.yi.org:6969/announce
  • udp://eddie4.nl:6969/announce
  • udp://tracker.leechers-paradise.org:6969/announce
  • udp://tracker.opentrackr.org:1337/announce
  • udp://p4p.arenabg.ch:1337/announce
  • udp://p4p.arenabg.com:1337/announce
  • udp://9.rarbg.me:2710/announce
  • udp://9.rarbg.to:2710/announce
  • udp://ipv4.tracker.harry.lu:80/announce
  • udp://tracker.grepler.com:6969/announce
  • udp://public.popcorn-tracker.org:6969/announce
  • udp://tracker.opentrackr.org:1337/announce
  • udp://tracker.zer0day.to:1337/announce