Alien-Covenant.2017.KORSUB.HDRip.1080p [SD]

  • Category Movies
  • Type HD
  • Language English
  • Total size 3.4 GB
  • Uploaded By MrStark
  • Downloads 47106
  • Last checked 2 weeks ago
  • Date uploaded 3 weeks ago
  • Seeders 4283
  • Leechers 1264

Alien: Covenant

ThrillerHorrorScience Fiction

Bound for a remote planet on the far side of the galaxy, the crew of the colony ship Covenant discovers what they think is an uncharted paradise, but is actually a dark, dangerous world — whose sole inhabitant is the “synthetic” David, survivor of the doomed Prometheus expedition.

Infohash : 02FD4D4ED69DBFACAEF8FCD908014DD5C9D11AB1



Alien-Covenant.2017.KORSUB.HDRip.1080p [SD]






Summary : The crew of a colony ship, bound for a remote planet, discover an uncharted paradise with a threat beyond their imagination, and must attempt a harrowing escape.



Alien-Covenant.2017.KOR.HDRip.1080p.mkv

This is the actual source of other releases like EVO and STUTTERSHIT


General

Complete name                            : Alien-Covenant.2017.KOR.HDRip.1080p.mkv
Format                                   : Matroska
Format version                           : Version 4 / Version 2
File size                                : 3.43 GiB
Duration                                 : 2h 2mn
Overall bit rate                         : 4 019 Kbps
Movie name                               : Alien-Covenant.2017.KOR.HDRip.1080p
Encoded date                             : UTC 2017-07-02 06:43:59
Writing application                      : mkvmerge v8.3.0 ('Over the Horizon') 64bit
Writing library                          : libebml v1.3.1 + libmatroska v1.4.2

Video
ID                                       : 1
Format                                   : HEVC
Format/Info                              : High Efficiency Video Coding
Format profile                           : [email protected]
Codec ID                                 : V_MPEGH/ISO/HEVC
Duration                                 : 2h 2mn
Bit rate                                 : 3 683 Kbps
Width                                    : 1 920 pixels
Height                                   : 1 080 pixels
Display aspect ratio                     : 16:9
Frame rate mode                          : Constant
Frame rate                               : 30.000 fps
Color space                              : YUV
Chroma subsampling                       : 4:2:0
Bit depth                                : 8 bits
Bits/(Pixel*Frame)                       : 0.059
Stream size                              : 3.14 GiB (92%)
Default                                  : Yes
Forced                                   : No

Audio
ID                                       : 2
Format                                   : AC-3
Format/Info                              : Audio Coding 3
Mode extension                           : CM (complete main)
Format settings, Endianness              : Big
Codec ID                                 : A_AC3
Duration                                 : 2h 2mn
Bit rate mode                            : Constant
Bit rate                                 : 256 Kbps
Channel(s)                               : 2 channels
Channel positions                        : Front: L R
Sampling rate                            : 48.0 KHz
Bit depth                                : 16 bits
Compression mode                         : Lossy
Stream size                              : 223 MiB (6%)
Default                                  : Yes
Forced                                   : No











Thanks to the original encoder and uploader



Files:

  • Alien-Covenant.2017.KOR.HDRip.1080p.mkv (3.4 GB)

Comments

Code:

  • http://bt.ttk.artvid.ru:6969/announce
  • udp://tracker.opentrackr.org:1337/announce
  • udp://p4p.arenabg.com:1337/announce
  • udp://bt.xxx-tracker.com:2710/announce
  • udp://opentrackr.org:1337/announce
  • udp://tracker.coppersurfer.tk:6969/announce
  • udp://tracker.coppersurfer.tk:80/announce
  • udp://tracker.zer0day.to:1337/announce
  • udp://zer0day.to:1337/announce
  • http://tracker.opentrackr.org:1337/announce
  • http://p4p.arenabg.com:1337/announce
  • http://182.190.4.52:6969/announce
  • http://www.opentrackr.org/announce
  • udp://eddie4.nl:6969/announce
  • udp://tracker.leechers-paradise.org:6969
  • udp://9.rarbg.com:2710/announce
  • udp://9.rarbg.me:2710/announce
  • udp://tracker.coppersurfer.tk:6969
  • udp://tracker.internetwarriors.net:1337
  • udp://91.218.230.81:6969/announce
  • udp://tracker.yoshi210.com:6969/announce
  • udp://62.138.0.158:6969/announce
  • http://tracker.acg.gg:1578/announce
  • http://tracker.internetwarriors.net:1337/announce
  • udp://182.176.139.129:6969/announce
  • http://tracker.acg.gg:2710/announce
  • udp://inferno.demonoid.ph:3392/announce
  • http://bt.artvid.ru:6969/announce
  • udp://tracker.leechers-paradise.org:6969/announce
  • udp://thetracker.org./announce
  • udp://bt1.archive.org:6969/announce
  • udp://a.leopard-raws.org:6969/announce
  • http://tracker.kamigami.org:2710/announce
  • udp://www.eddie4.nl:6969/announce
  • udp://public.popcorn-tracker.org:6969/announce
  • http://tracker.grepler.com:6969/announce