Hindi Medium (2017) - 720p - WebHD-Rip - Hindi - x264 - AC3 - DD5...

  • Category Movies
  • Type Bollywood
  • Language Hindi
  • Total size 1.1 GB
  • Uploaded By Mafiaking
  • Downloads 13145
  • Last checked 3 weeks ago
  • Date uploaded 4 weeks ago
  • Seeders 214
  • Leechers 445

Hindi Medium

ComedyDrama

Mita and Raj Batra, an affluent couple from Delhi’s Chandni Chowk, are grappling with getting their daughter admission into an English medium school. But there is one big problem. Their zubaan is Hindi, and the elitist snobs won’t let the Hindi speaking hoi-polloi fit in.

Infohash : 0F8EA06E6F103BCBCE716D45C4FEEC1C3A352528










Quote:







Ratings: 8.1/10

Genere: Comedy, Drama

General
Unique ID : 203166564047365923951505373910859490546 (0x98D874FA00321311B405BCEF97E3A4F2)
Complete name : Hindi Medium (2017) - 720p - WebHD-Rip - Hindi - x264 - AC3 - DD5.1 - ESubs - Mafiaking - M2Tv.mkv
Format : Matroska
Format version : Version 4 / Version 2
File size : 1.08 GiB
Duration : 2 h 10 min
Overall bit rate : 1 176 kb/s
Movie name : Hindi Medium (2017) - 720p - WebHD-Rip - Hindi - x264 - AC3 - DD5.1 - ESubs - Mafiaking - M2Tv
Encoded date : UTC 2017-06-25 11:03:11
Writing application : mkvmerge v7.0.0 ('Where We Going') 32bit built on Jun 9 2014 15:08:34
Writing library : libebml v1.3.0 + libmatroska v1.4.1

Video
ID : 1
Format : AVC
Format/Info : Advanced Video Codec
Format profile : [email protected]
Format settings, CABAC : Yes
Format settings, ReFrames : 4 frames
Codec ID : V_MPEG4/ISO/AVC
Duration : 2 h 10 min
Bit rate : 950 kb/s
Width : 1 280 pixels
Height : 544 pixels
Display aspect ratio : 2.35:1
Frame rate mode : Constant
Frame rate : 23.976 (24000/1001) FPS
Color space : YUV
Chroma subsampling : 4:2:0
Bit depth : 8 bits
Scan type : Progressive
Bits/(Pixel*Frame) : 0.057
Stream size : 889 MiB (81%)
Title : Mafiaking
Language : Hindi
Default : Yes
Forced : No

Audio
ID : 2
Format : AC-3
Format/Info : Audio Coding 3
Format settings, Endianness : Big
Codec ID : A_AC3
Duration : 2 h 10 min
Bit rate mode : Constant
Bit rate : 224 kb/s
Channel(s) : 6 channels
Channel positions : Front: L C R, Side: L R, LFE
Sampling rate : 48.0 kHz
Frame rate : 31.250 FPS (1536 spf)
Bit depth : 16 bits
Compression mode : Lossy
Stream size : 210 MiB (19%)
Title : Mafiaking
Language : Hindi
Service kind : Complete Main
Default : Yes
Forced : No

Text
ID : 3
Format : UTF-8
Codec ID : S_TEXT/UTF8
Codec ID/Info : UTF-8 Plain Text
Duration : 2 h 9 min
Bit rate : 80 b/s
Count of elements : 2395
Stream size : 76.4 KiB (0%)
Title : Mafiaking
Language : English
Default : Yes
Forced : No

SAMPLE WITH IN TORRENT







**To View Image In Full Size Click on Thumbnails**

Files:

Hindi Medium (2017) 720p WebHDRip x264 AC3 Mafiaking M2Tv
  • SaMple.mkv (8.5 MB)
  • Hindi Medium (2017) 720p WebHDRip x264 AC3 Mafiaking M2Tv.mkv (1.1 GB)

Comments

Code:

  • udp://tracker.coppersurfer.tk:6969/announce
  • udp://thetracker.org:80/announce
  • udp://tracker.leechers-paradise.org:6969/announce
  • udp://eddie4.nl:6969/announce
  • udp://zer0day.ch:1337/announce
  • udp://tracker.sktorrent.net:6969/announce
  • udp://9.rarbg.me:2710/announce
  • udp://9.rarbg.to:2710/announce
  • udp://torrent.gresille.org:80/announce
  • udp://tracker.aletorrenty.pl:2710/announce
  • udp://tracker.piratepublic.com:1337/announce
  • udp://tracker.opentrackr.org:1337/announce
  • udp://explodie.org:6969/announce
  • udp://p4p.arenabg.ch:1337/announce